Доктор Стрэндж

Лицензия

Добыча

MVO

Дом дракона

1 сезон

Тор

Лицензия

Мэверик

Лицензия

Там, где раки поют

MVO

Властелин колец

1 сезон

Ultimate

pack

Рекомендуем

30

Repack

ВАЖНО

ВАЖНО

Ghostwire

RePack

jed

RePack

nioh2

RePack

RDR2

RePack

NEED FOR SPEED™ PAYBACK

RePack

скачать торрент

Кинопоиск HD

Острые козырьки 6 сезон

6 сезон

FAR CRY 6

RePack

скачать торрент

Лицензия

скачать торрент

MVO

1

1 сезон

скачать торрент

1 сезон

скачать торрент

Лицензия

  

Босс-молокосос 2 в 3Д / The Boss Baby: Family Business 3D (Том МакГрат / Tom McGrath) [2021, мультфильм, комедия, приключения, семейный, BDRip, 1080p] OverUnder / Вертикальная стереопара (Дубляж - Пифагор)

Босс-молокосос 2 в 3Д через торрент 6060.piratbit.fun

Размер: 12.44 GB | Добавлен: 9 мес. назад | Торрент скачан:28 раз
Смотреть онлайн Босс-молокосос 2 в 3Д | Скачать   

03-12-2021 06:22 Босс-молокосос 2 в 3Д Скачать торрент  

Босс-молокосос 2 / The Boss Baby: Family Business

Год выпуска: 2021
Страна: США (DreamWorks Animation)
Жанр: мультфильм, комедия, приключения, семейный
Продолжительность: 01:47:13

Перевод: Профессиональный дублированный (Пифагор - Кинопоиск HD)
Русские субтитры: нет
Режиссер на русском: Том МакГрат / Tom McGrath

Роли озвучивали: Алек Болдуин, Джеймс Марсден, Эми Седарис, Ариана Гринблатт, Джефф Голдблюм, Ева Лонгория, Джеймс МакГрат, Джимми Киммел, Лиза Кудроу, Рафаэль Алехандро

Описание: Братья Тим и Тед давно повзрослели и отдалились друг от друга. Тед стал генеральным директором инвестиционного фонда, а Тим посвятил себя семье. Он женился, поселился в пригороде и обзавелся двумя прекрасными дочерьми — Тиной и Табитой. 7-летняя Табита — умная и очень усердная. Несмотря на свой юный возраст, она уже лучшая в классе, а малышка Тина на самом деле оказывается агентом компании BabyCorp.
Узнав, что злой гений доктор Эрвин Армстронг выращивает целую армию злобных малышей, Тина с помощью своего папы и дяди решает противостоять ему.

Сэмпл: http://sendfile.su/1628868

Качество: BDrip, 1080p
Контейнер: MKV
Формат 3D: OverUnder / Вертикальная стереопара
Порядок ракурсов: левый ракурс первый
Видео кодек: x264
Аудио кодек: AC3
Видео: AVC / [email protected] / 23,976 fps / 1920х2160 / 15,3 Мбит/сек
Аудио: Русский / AC3 / 48 KHz / 5.1 ch / 448 Кбит/сек(Дубляж - Пифагор)
Аудио 2: Английский / AC3 / 48 KHz / 5.1 ch / 448 Кбит/сек

ВНИМАНИЕ ! На встроенных ТВ-плеерах работать не будет!!!

ТВ Samsung в названии которого есть надпись Ultra HD , и LG Ultra HD 800 серии, LG C6P, Xiaomi Mi TV 2, GRUNDIG VLE 8474 BL, Samsung UE48H6200AK, SUPRA STV-LC42ST960UL00 воспроизводят полные стереопары встроенными плеерами
Железные плееры на которых воспроизводятся полные стереопары:Popcorn C-200, Popcorn a-400, Dune HD Smart D1 , Dune HD DUO , Dune HD Smart H1 , Dune HD Smart B1 , Dune HD Max , Dune HD TV-303D, Dune HD TV-102, Dune HD Base 3D, Philips HMP7001, Aura HD, MECOOL BB2, Zidoo x9s, Lake I Cloud, MiBox 3
Чтобы изображение было на весь экран в плеере выставляем, если рип 1920х1600 - то выставляем 2.35:1 , если 1920х2160 - то выставляем 16:9
Общее
Уникальный идентификатор : 205344984133735437170946641937849023370 (0x9A7C01610FB307239C864B71A9827B8A)
Полное имя : E:\видео\The Boss Baby Family Business.Rip by SeRoGa00.mkv
Формат : Matroska
Версия формата : Version 2
Размер файла : 12,4 Гбайт
Продолжительность : 1 ч. 47 м.
Общий поток : 16,6 Мбит/сек
Дата кодирования : UTC 2021-12-03 05:46:02
Программа кодирования : mkvmerge v3.4.0 ('Rapunzel') сборка от May 15 2010 09:38:20
Библиотека кодирования : libebml v0.8.0 + libmatroska v0.9.0

Видео
Идентификатор : 1
Формат : AVC
Формат/Информация : Advanced Video Codec
Профиль формата : [email protected]
Параметр CABAC формата : Да
Параметр ReFrames формата : 4 кадра
Идентификатор кодека : V_MPEG4/ISO/AVC
Продолжительность : 1 ч. 47 м.
Битрейт : 15,3 Мбит/сек
Ширина : 1920 пикселей
Высота : 2160 пикселей
Соотношение сторон : 0,889
Частота кадров : 23,976 кадра/сек
Цветовое пространство : YUV
Субдискретизация насыщенности : 4:2:0
Битовая глубина : 8 бит
Тип развёртки : Прогрессивная
Бит/(Пиксели*Кадры) : 0.154
Размер потока : 11,5 Гбайт (93%)
Заголовок : Rip by SeRoGa00
Библиотека кодирования : x264 core 157 r2969 d4099dd
Настройки программы : cabac=1 / ref=4 / deblock=1:-3:-3 / analyse=0x3:0x113 / me=umh / subme=10 / psy=1 / psy_rd=1.00:0.15 / mixed_ref=1 / me_range=24 / chroma_me=1 / trellis=2 / 8x8dct=1 / cqm=0 / deadzone=21,11 / fast_pskip=1 / chroma_qp_offset=-3 / threads=12 / lookahead_threads=6 / sliced_threads=0 / nr=0 / decimate=0 / interlaced=0 / bluray_compat=0 / constrained_intra=0 / bframes=10 / b_pyramid=2 / b_adapt=2 / b_bias=0 / direct=3 / weightb=1 / open_gop=0 / weightp=2 / keyint=250 / keyint_min=23 / scenecut=40 / intra_refresh=0 / rc_lookahead=60 / rc=crf / mbtree=1 / crf=16.5 / qcomp=0.60 / qpmin=10 / qpmax=69 / qpstep=4 / vbv_maxrate=40000 / vbv_bufsize=40000 / crf_max=0.0 / nal_hrd=none / filler=0 / ip_ratio=1.40 / aq=1:1.00
Язык : English
Default : Нет
Forced : Нет

Аудио #1
Идентификатор : 2
Формат : AC-3
Формат/Информация : Audio Coding 3
Расширение режима : CM (complete main)
Параметр Endianness формата : Big
Идентификатор кодека : A_AC3
Продолжительность : 1 ч. 47 м.
Вид битрейта : Постоянный
Битрейт : 448 Кбит/сек
Каналы : 6 каналов
Расположение каналов : Front: L C R, Side: L R, LFE
Частота : 48,0 КГц
Битовая глубина : 16 бит
Метод сжатия : С потерями
Задержка видео : 980 мс.
Размер потока : 344 Мбайт (3%)
Язык : Russian
Default : Да
Forced : Нет

Аудио #2
Идентификатор : 3
Формат : AC-3
Формат/Информация : Audio Coding 3
Расширение режима : CM (complete main)
Параметр Endianness формата : Big
Идентификатор кодека : A_AC3
Продолжительность : 1 ч. 47 м.
Вид битрейта : Постоянный
Битрейт : 448 Кбит/сек
Каналы : 6 каналов
Расположение каналов : Front: L C R, Side: L R, LFE
Частота : 48,0 КГц
Битовая глубина : 16 бит
Метод сжатия : С потерями
Размер потока : 344 Мбайт (3%)
Язык : English
Default : Нет
Forced : Нет
скриншот  

скриншот  

скриншот  

скриншот  

скриншот  

скриншот  

скриншот  

скриншот  



Скачать Босс-молокосос 2 в 3Д через торрент https://a.radikal.ru/a37/2112/59/3e94a09506b6.png Скачать, смотреть онлайн Босс-молокосос 2 в 3Д бесплантно в хорошем качестве Описание: Братья Тим и Тед давно повзрослели и отдалились друг от друга. Тед стал генеральным директором инвестиционного фонда, а Тим ... 10 10 1
Торрент: Зарегистрирован [2021-12-03 06:22] · скачан: 28 раз
Статус: √ проверено
Размер: 12.44 GB
Как cкачать? Как скачать Босс-молокосос 2 в 3Д через торрент | UTorrent

28-11-2019 20:33  

Отключить вcю реклaмy на сайте

    Дорогой пользователь! Огромная просьба, поблагодарите релизера, оцените раздачу и оставьте свои комментарий, если Вы скачали Босс-молокосос 2 в 3Д через торрент бесплатно!!
    Комментировать посты могут только пользователи прошедшие не сложную регистрацию
    Показать сообщения:    


    Босс-молокосос 2 в 3Д через торрент
    Скачать бесплатно Босс-молокосос 2 в 3Д
    Босс-молокосос 2 в 3Д скачать торрент
    Босс-молокосос 2 в 3Д смотреть онлайн
    Cкачать фильм Босс-молокосос 2 в 3Д бесплатно
    Босс-молокосос 2 в 3Д скачать торрент в хорошем качестве
    Босс-молокосос 2 в 3Д смотреть онлайн бесплатно в хорошем качестве
    Вы не можете начинать темы
    Вы не можете отвечать на сообщения
    Вы не можете редактировать свои сообщения
    Вы не можете удалять свои сообщения
    Вы не можете голосовать в опросах
    Вы не можете прикреплять файлы к сообщениям
    Вы можете скачивать файлы